Brian Wilson - 21 Little Ones

General music and other artist discussions
Post Reply
User avatar
siveld
Posts: 23
Joined: Fri May 21, 2021 1:02 pm
Location: Brisbane

Brian Wilson - 21 Little Ones

Post by siveld »

This was requested in the wrong sub-forum, so I have posted my reply both here and there.

I have 21 Little Ones on a hard drive. It is in .ape format with associated .cue file, EAC log and art etc.
I have split the .ape file, converted the resulting track .ape files to wave files and run them through TLH to confirm that they are 100% lossless.
I then encoded them to flac format, and uploaded the complete folder (without the original .ape file, to reduce folder size) to MEGA.

Here is the link for anyone interested:

hxxps://mega.nz/folder/G89z3QKb#G7bG150_2X4Y8k7e2GnP5w

For information purposes, here is the info file from the folder:

Brian Wilson – 21 Little Ones (1995)
Posted By : GrUrs | Date : 09 Jan 2011 00:29:23 | Comments : 1 | Twitter | Share

Brian Wilson – 21 Little Ones
EAC | CD-image, APE, CUE, LOG – 360Mb | cover | 3% recovery | letitbit + mega + rs.com
Vigotone © 1995, Australia | CDR | VT-151

1. The Spirit of Rock 'N' Roll
2. Turning Point
3. Just Say No
4. Heavenly Bodies
5. Christmas Time
6. Walkin' the Line
7. Save the Day
8. Concert Tonight
9. Barbie
10. This Could Be the Night
11. Sweets for My Sweet
12. Too Much Sugar
13. Goodnight Irene
14. California Girls
15. God Only Knows
16. Surfer Girl
17. The Spirit of Rock 'N' Roll
18. Let's Go to Heaven in My Car
19. I'll Bet He's Nice
20. That Special Feeling
21. Still I Dream of It

Tracks 1 – 6: Unreleased sessions with Gary Usher.
Track 7: Unreleased song from Sweet Insanity version one (not on version two).
Track 8: Unreleased long version of song from Sweet Insanity version one (short version on volume two).
Track 9: Issued as a blue flexi-disc to promote the “California Dream" Barbie (A solo effort, though credited to the Beach Boys)
Track 10: Released on the For the Love of Harry: Everyone Sings Nilsson tribute CD.
Track 11: Released on the Till the Night is Gone: A Tribute to Doc Pomus
Track 12: B-side of track 18.
Track 13: Released on the Folkways: A Vision Shared - A Tribute to Woody Guthrie and Leadbelly
Tracks 14 – 17: Live TV appearance hosted by Dion.
Track 18: Single release from Police Academy IV
Tracks 19 – 20: Solo piano demos for the Beach Boys Love You album.

“ The sound quality varies from track to track. A fair amount of hiss on most of the unreleased stuff. Most of the other tracks are from legit releases, a TV appearance and three «Beach Boys Love You» demos (one that later showed up on the «I Just Wasn't Made for These Times» soundtrack)
It's still a good collection since it gathers tracks from many Tribute / Soundtrack albums in one place and you get what ended up to be Brian's last collaboration with Gary Usher.
Not to mention a great solo version of ”Surfer Girl”!
~ Dugan, SHforum

"Heavenly Bodies", "Concert Tonight", "Let's Go To Heaven In My Car" and "Still I Dream Of It” are all priceless. The best complete "Concert Tonight” that I know of. The nearest that Brian ever came to hard rock.
~ dumangl, BZ ”

EAC log
Exact Audio Copy V0.99 prebeta 4 from 23. January 2008

EAC extraction logfile from 8. January 2011, 19:57

Brian Wilson / 21 Little Ones

Used drive : MATSHITADVD-RAM UJ-852S Adapter: 0 ID: 0

Read mode : Secure
Utilize accurate stream : Yes
Defeat audio cache : Yes
Make use of C2 pointers : No

Read offset correction : 102
Overread into Lead-In and Lead-Out : No
Fill up missing offset samples with silence : Yes
Delete leading and trailing silent blocks : No
Null samples used in CRC calculations : Yes
Used interface : Native Win32 interface for Win NT & 2000

Used output format : Monkey's Audio Lossless Encoder
Selected bitrate : Extra High Lossless Compression
Quality : High
Add ID3 tag : Yes
Command line compressor : C:\Program Files\Monkey's Audio\MAC.exe


TOC of the extracted CD

Track | Start | Length | Start sector | End sector
---------------------------------------------------------
1 | 0:00.30 | 3:16.72 | 30 | 14801
2 | 3:17.27 | 3:25.11 | 14802 | 30187
3 | 6:42.38 | 3:01.28 | 30188 | 43790
4 | 9:43.66 | 3:19.06 | 43791 | 58721
5 | 13:02.72 | 2:49.48 | 58722 | 71444
6 | 15:52.45 | 2:55.53 | 71445 | 84622
7 | 18:48.23 | 5:16.60 | 84623 | 108382
8 | 24:05.08 | 4:42.74 | 108383 | 129606
9 | 28:48.07 | 1:59.32 | 129607 | 138563
10 | 30:47.39 | 2:31.58 | 138564 | 149946
11 | 33:19.22 | 2:22.19 | 149947 | 160615
12 | 35:41.41 | 2:37.26 | 160616 | 172416
13 | 38:18.67 | 2:40.20 | 172417 | 184436
14 | 40:59.12 | 2:35.66 | 184437 | 196127
15 | 43:35.03 | 3:09.55 | 196128 | 210357
16 | 46:44.58 | 1:59.38 | 210358 | 219320
17 | 48:44.21 | 3:53.43 | 219321 | 236838
18 | 52:37.64 | 3:43.23 | 236839 | 253586
19 | 56:21.12 | 2:23.34 | 253587 | 264345
20 | 58:44.46 | 1:44.05 | 264346 | 272150
21 | 60:28.51 | 3:36.08 | 272151 | 288358


Range status and errors

Selected range

Filename M:\Uploads\Brian Wilson - 21 Little Ones.wav

Peak level 91.2 %
Range quality 100.0 %
Copy CRC 6BB8E8D0
Copy OK

No errors occurred

End of status report

letitbit 1
letitbit 2

mega pt.1
mega pt.2
mega pt.3
mega pt.4

r-share I
r-share II
pass Vigo_151


Posted By: Dualtrack Date: 09 Jan 2011 05:24:11
Thanks for this amazing share! It's an impossible to find CD!


I do not have Come Back, Brian.
Top
Post Reply